<?xml version="1.0" standalone="no"?>
<!DOCTYPE svg PUBLIC "-//W3C//DTD SVG 1.1//EN" "http://www.w3.org/Graphics/SVG/1.1/DTD/svg11.dtd" >
<svg xmlns="http://www.w3.org/2000/svg">
<metadata>Generated by IcoMoon</metadata>
<defs>
<font id="Brooklyn-Core" horiz-adv-x="1024">
<font-face units-per-em="1024" ascent="960" descent="-64" />
<missing-glyph horiz-adv-x="1024" />
<glyph unicode="&#x20;" horiz-adv-x="512" d="" />
<glyph unicode="&#xe900;" glyph-name="Anchor" d="M494.933-64c-10.24 0-17.067 10.24-17.067 17.067-3.413 3.413-37.547 13.653-61.44 20.48-75.093 23.893-191.147 58.027-238.933 167.253h-34.133c-3.413 0-6.827 0-10.24 3.413s-102.4 64.853-102.4 286.72c0 6.827 3.413 13.653 10.24 17.067s13.653 0 17.067-3.413c102.4-102.4 218.453-167.253 218.453-167.253 6.827-3.413 10.24-13.653 6.827-23.893l-10.24-23.893c51.2-51.2 88.747-88.747 116.053-88.747 3.413 0 6.827 0 10.24 3.413 10.24 6.827 10.24 23.893 10.24 30.72v409.6h-61.44c-20.48-20.48-47.787-34.133-75.093-34.133-58.027 0-102.4 44.373-102.4 102.4s44.373 102.4 102.4 102.4c20.48 0 40.96-6.827 58.027-17.067 6.827-3.413 13.653-10.24 20.48-17.067h58.027c0 6.827 0 20.48 3.413 30.72-23.893 23.893-37.547 54.613-37.547 88.747 0 64.853 54.613 119.467 119.467 119.467s119.467-54.613 119.467-119.467c0-34.133-13.653-64.853-37.547-88.747 0-13.653 3.413-23.893 3.413-30.72h95.573c20.48 20.48 47.787 34.133 75.093 34.133 58.027 0 102.4-44.373 102.4-102.4s-44.373-102.4-102.4-102.4c-30.72 0-58.027 13.653-75.093 34.133h-95.573v-409.6c0-6.827 3.413-23.893 10.24-30.72 10.24-10.24 85.333 10.24 153.6 75.093l-20.48 30.72c-6.827 6.827-6.827 10.24-6.827 13.653s3.413 10.24 10.24 10.24c0 0 129.707 64.853 235.52 167.253 3.413 3.413 13.653 6.827 17.067 3.413 6.827-3.413 10.24-10.24 10.24-17.067 0-225.28-105.813-286.72-112.64-286.72-3.413 0-6.827-3.413-6.827-3.413h-30.72c-47.787-109.227-174.080-143.36-259.413-167.253-27.307-6.827-61.44-17.067-68.267-23.893 0 0 0-3.413 0-3.413-3.413-3.413-10.24-6.827-17.067-6.827zM150.187 174.933h37.547c6.827 0 13.653-3.413 17.067-10.24 40.96-102.4 150.187-133.12 221.867-157.013 30.72-10.24 54.613-17.067 68.267-27.307 17.067 10.24 40.96 17.067 75.093 27.307 81.92 20.48 201.387 54.613 242.347 157.013 3.413 6.827 10.24 10.24 17.067 10.24h37.547c13.653 10.24 78.507 64.853 88.747 215.040-78.507-68.267-160.427-116.053-194.56-136.533l17.067-27.307c3.413-6.827 3.413-17.067-3.413-20.48-64.853-64.853-136.533-98.987-177.493-98.987-13.653 0-23.893 3.413-34.133 13.653-17.067 20.48-17.067 51.2-17.067 54.613v426.667c0 10.24 6.827 17.067 17.067 17.067h119.467c6.827 0 10.24-3.413 13.653-6.827 13.653-17.067 34.133-27.307 54.613-27.307 37.547 0 68.267 30.72 68.267 68.267s-30.72 68.267-68.267 68.267c-20.48 0-40.96-10.24-54.613-27.307-3.413-3.413-6.827-6.827-13.653-6.827h-119.467c-10.24 0-17.067 6.827-17.067 17.067 0 0 0 23.893-3.413 54.613 0 6.827 0 10.24 6.827 17.067 20.48 17.067 34.133 40.96 34.133 68.267-3.413 44.373-40.96 81.92-88.747 81.92s-85.333-37.547-85.333-85.333c0-27.307 10.24-51.2 34.133-68.267 3.413-3.413 6.827-10.24 6.827-17.067-6.827-27.307-6.827-51.2-6.827-51.2 0-10.24-6.827-17.067-17.067-17.067h-85.333c-6.827 0-10.24 3.413-13.653 10.24-3.413 3.413-10.24 10.24-13.653 10.24-51.2 34.133-109.227-3.413-109.227-54.613 0-37.547 30.72-68.267 68.267-68.267 20.48 0 40.96 10.24 54.613 27.307 3.413 3.413 6.827 6.827 13.653 6.827 0 0 3.413 0 3.413 0h81.92c10.24 0 17.067-6.827 17.067-17.067v-426.667c0-3.413 0-34.133-17.067-54.613-10.24-10.24-20.48-13.653-34.133-13.653-40.96 0-81.92 40.96-143.36 98.987l-6.827 6.827c-3.413 6.827-3.413 13.653 0 20.48l10.24 20.48c-30.72 17.067-105.813 64.853-180.907 136.533 6.827-146.773 64.853-201.387 78.507-215.040zM494.933 823.467c-10.24 0-17.067 6.827-17.067 17.067s6.827 17.067 17.067 17.067v0c10.24 0 17.067-6.827 17.067-17.067s-6.827-17.067-17.067-17.067z" />
<glyph unicode="&#xe901;" glyph-name="Clock-1" d="M512-46.933c-273.067 0-494.933 221.867-494.933 494.933s221.867 494.933 494.933 494.933 494.933-221.867 494.933-494.933-221.867-494.933-494.933-494.933zM512 908.8c-252.587 0-460.8-208.213-460.8-460.8s208.213-460.8 460.8-460.8 460.8 208.213 460.8 460.8-208.213 460.8-460.8 460.8zM750.933 430.933h-238.933c-10.24 0-17.067 6.827-17.067 17.067v341.333c0 10.24 6.827 17.067 17.067 17.067s17.067-6.827 17.067-17.067v-324.267h221.867c10.24 0 17.067-6.827 17.067-17.067s-6.827-17.067-17.067-17.067z" />
<glyph unicode="&#xe902;" glyph-name="Down-2" d="M512 192c-3.413 0-10.24 0-13.653 3.413l-477.867 477.867c-6.827 6.827-6.827 17.067 0 23.893s17.067 6.827 23.893 0l467.627-464.213 464.213 467.627c6.827 6.827 17.067 6.827 23.893 0s6.827-17.067 0-23.893l-477.867-477.867c0-6.827-6.827-6.827-10.24-6.827z" />
<glyph unicode="&#xe903;" glyph-name="Down-3" d="M512 4.267c-3.413 0-10.24 0-13.653 3.413l-477.867 477.867c-6.827 6.827-6.827 17.067 0 23.893s17.067 6.827 23.893 0l467.627-464.213 464.213 464.213c6.827 6.827 17.067 6.827 23.893 0s6.827-17.067 0-23.893l-477.867-477.867c0-3.413-6.827-3.413-10.24-3.413zM512 379.733c-3.413 0-10.24 0-13.653 3.413l-477.867 477.867c-6.827 6.827-6.827 17.067 0 23.893s17.067 6.827 23.893 0l467.627-464.213 464.213 467.627c6.827 6.827 17.067 6.827 23.893 0s6.827-17.067 0-23.893l-477.867-477.867c0-6.827-6.827-6.827-10.24-6.827z" />
<glyph unicode="&#xe904;" glyph-name="Volume-2-1" d="M686.080 960c-6.827 3.413-13.653 0-17.067-3.413l-337.92-337.92h-163.84c-10.24 0-17.067-6.827-17.067-17.067v-307.2c0-10.24 6.827-17.067 17.067-17.067h163.84l337.92-337.92c3.413-3.413 6.827-3.413 13.653-3.413 3.413 0 3.413 0 6.827 0 6.827 3.413 10.24 10.24 10.24 17.067v989.867c-3.413 6.827-3.413 13.653-13.653 17.067zM662.187-5.973l-314.027 310.613c-3.413 3.413-6.827 3.413-13.653 3.413h-153.6v273.067h153.6c3.413 0 10.24 3.413 13.653 3.413l314.027 310.613v-901.12zM815.787 567.467c-6.827 6.827-17.067 6.827-23.893 0s-6.827-17.067 0-23.893c27.307-27.307 40.96-61.44 40.96-95.573s-13.653-71.68-40.96-95.573c-6.827-6.827-6.827-17.067 0-23.893 3.413-3.413 6.827-3.413 13.653-3.413s10.24 0 13.653 3.413c30.72 30.72 51.2 75.093 51.2 119.467s-20.48 88.747-54.613 119.467z" />
<glyph unicode="&#xe905;" glyph-name="Volume-2-Mute" d="M952.32 34.987l-853.333 853.333c-6.827 6.827-17.067 6.827-23.893 0s-6.827-17.067 0-23.893l853.333-853.333c3.413-3.413 6.827-3.413 13.653-3.413s10.24 0 13.653 3.413c0 3.413 0 17.067-3.413 23.893zM699.733 178.347c-10.24 0-17.067-6.827-17.067-17.067v-167.253l-314.027 310.613c-3.413 3.413-6.827 3.413-13.653 3.413h-153.6v273.067h58.027c10.24 0 17.067 6.827 17.067 17.067s-6.827 17.067-17.067 17.067h-75.093c-10.24 0-17.067-6.827-17.067-17.067v-307.2c0-10.24 6.827-17.067 17.067-17.067h163.84l337.92-337.92c3.413-3.413 6.827-3.413 13.653-3.413 3.413 0 3.413 0 6.827 0 6.827 3.413 10.24 10.24 10.24 17.067v211.627c0 10.24-6.827 17.067-17.067 17.067zM419.84 639.147l266.24 262.827v-546.133c0-10.24 6.827-17.067 17.067-17.067s17.067 6.827 17.067 17.067v587.093c0 6.827-3.413 13.653-10.24 17.067s-13.653 0-17.067-3.413l-293.547-293.547c-6.827-6.827-6.827-17.067 0-23.893s13.653-6.827 20.48 0z" />
<glyph unicode="&#xe908;" glyph-name="Headset-1" d="M989.867 294.4v136.533c0 262.827-221.867 494.933-477.867 494.933s-477.867-232.107-477.867-494.933v-136.533c-20.48-27.307-34.133-61.44-34.133-102.4 0-112.64 109.227-221.867 221.867-221.867 27.307 0 51.2 23.893 51.2 51.2v307.2c0 27.307-23.893 51.2-51.2 51.2-54.613 0-112.64-17.067-153.6-51.2v102.4c0 139.947 68.267 269.653 170.667 358.4v-85.333c0-6.827 3.413-13.653 10.24-17.067s13.653 0 17.067 3.413c61.44 64.853 143.36 95.573 242.347 95.573 102.4 0 180.907-30.72 242.347-95.573 3.413-3.413 6.827-6.827 13.653-6.827 3.413 0 3.413 0 6.827 0 6.827 3.413 10.24 10.24 10.24 17.067v88.747c102.4-85.333 170.667-215.040 170.667-358.4v-102.4c-40.96 34.133-98.987 51.2-153.6 51.2-27.307 0-51.2-23.893-51.2-51.2v-307.2c0-27.307 23.893-51.2 51.2-51.2 112.64 0 221.867 109.227 221.867 221.867 3.413 40.96-10.24 75.093-30.72 102.4zM238.933 21.333c0-10.24-6.827-17.067-17.067-17.067s-17.067 6.827-17.067 17.067v307.2c0 10.24 6.827 17.067 17.067 17.067s17.067-6.827 17.067-17.067v-307.2zM170.667 342.187c0-3.413 0-6.827 0-13.653v-307.2c0-3.413 0-6.827 0-6.827-75.093 23.893-136.533 102.4-136.533 177.493 0 81.92 64.853 133.12 136.533 150.187zM750.933 806.4v-64.853c-64.853 51.2-143.36 78.507-238.933 78.507s-174.080-27.307-238.933-78.507v64.853c0 3.413 0 3.413 0 6.827 71.68 47.787 153.6 78.507 238.933 78.507s170.667-30.72 238.933-78.507c0-3.413 0-3.413 0-6.827zM785.067 328.533c0 10.24 6.827 17.067 17.067 17.067s17.067-6.827 17.067-17.067v-307.2c0-10.24-6.827-17.067-17.067-17.067s-17.067 6.827-17.067 17.067v307.2zM853.333 14.507c0 3.413 0 6.827 0 6.827v307.2c0 3.413 0 6.827 0 13.653 75.093-17.067 136.533-64.853 136.533-150.187 0-75.093-64.853-153.6-136.533-177.493z" />
<glyph unicode="&#xe90a;" glyph-name="Left-2" d="M750.933-46.933c-3.413 0-10.24 0-13.653 3.413l-477.867 477.867c-6.827 6.827-6.827 17.067 0 23.893l477.867 477.867c6.827 6.827 17.067 6.827 23.893 0s6.827-17.067 0-23.893l-464.213-464.213 464.213-464.213c6.827-6.827 6.827-17.067 0-23.893 0-6.827-6.827-6.827-10.24-6.827z" />
<glyph unicode="&#xe90b;" glyph-name="Left-3" d="M563.2-46.933c-3.413 0-10.24 0-13.653 3.413l-477.867 477.867c-6.827 6.827-6.827 17.067 0 23.893l477.867 477.867c6.827 6.827 17.067 6.827 23.893 0s6.827-17.067 0-23.893l-464.213-464.213 464.213-464.213c6.827-6.827 6.827-17.067 0-23.893 0-6.827-6.827-6.827-10.24-6.827zM938.667-46.933c-3.413 0-10.24 0-13.653 3.413l-477.867 477.867c-6.827 6.827-6.827 17.067 0 23.893l477.867 477.867c6.827 6.827 17.067 6.827 23.893 0s6.827-17.067 0-23.893l-464.213-464.213 464.213-464.213c6.827-6.827 6.827-17.067 0-23.893 0-6.827-6.827-6.827-10.24-6.827z" />
<glyph unicode="&#xe90e;" glyph-name="Map-Pin-2" d="M512-64c-6.827 0-13.653 3.413-17.067 10.24-10.24 23.893-273.067 597.333-273.067 740.693 0 146.773 136.533 273.067 290.133 273.067s290.133-126.293 290.133-273.067c0-143.36-262.827-716.8-273.067-740.693-3.413-6.827-10.24-10.24-17.067-10.24zM512 925.867c-136.533 0-256-112.64-256-238.933 0-116.053 197.973-566.613 256-692.907 58.027 126.293 256 576.853 256 692.907 0 126.293-119.467 238.933-256 238.933zM512 550.4c-85.333 0-153.6 68.267-153.6 153.6s68.267 153.6 153.6 153.6 153.6-68.267 153.6-153.6-68.267-153.6-153.6-153.6zM512 823.467c-64.853 0-119.467-54.613-119.467-119.467s54.613-119.467 119.467-119.467 119.467 54.613 119.467 119.467-54.613 119.467-119.467 119.467z" />
<glyph unicode="&#xe90f;" glyph-name="Map-pin-6" d="M512 277.333c-119.467 0-197.973 20.48-235.52 58.027-20.48 20.48-20.48 40.96-20.48 44.373 0 81.92 34.133 136.533 112.64 167.253 10.24 3.413 17.067 0 23.893-10.24 3.413-10.24 0-17.067-10.24-23.893-64.853-27.307-92.16-68.267-92.16-136.533 0 0 6.827-68.267 221.867-68.267s221.867 68.267 221.867 68.267c0 68.267-27.307 109.227-92.16 136.533-10.24 3.413-13.653 13.653-10.24 23.893s13.653 13.653 23.893 10.24c78.507-34.133 112.64-85.333 112.64-170.667 0-3.413 0-23.893-20.48-44.373-37.547-34.133-116.053-54.613-235.52-54.613zM512 686.933c-129.707 0-221.867 98.987-221.867 187.733 0 3.413 0 3.413 0 6.827 3.413 6.827 34.133 78.507 221.867 78.507s218.453-71.68 221.867-78.507c0-3.413 0-3.413 0-6.827 0-88.747-92.16-187.733-221.867-187.733zM324.267 871.253c3.413-71.68 81.92-150.187 187.733-150.187s184.32 78.507 187.733 150.187c-6.827 10.24-44.373 54.613-187.733 54.613s-180.907-44.373-187.733-54.613zM512 789.333c-187.733 0-218.453 71.68-221.867 78.507-3.413 10.24 3.413 20.48 10.24 23.893 10.24 3.413 17.067 0 20.48-10.24 3.413-3.413 30.72-58.027 191.147-58.027 163.84 0 187.733 58.027 187.733 58.027 3.413 10.24 13.653 13.653 20.48 10.24 10.24-3.413 13.653-13.653 10.24-20.48 0-10.24-30.72-81.92-218.453-81.92zM512-64c-10.24 0-17.067 6.827-17.067 17.067v341.333c0 10.24 6.827 17.067 17.067 17.067s17.067-6.827 17.067-17.067v-341.333c0-10.24-6.827-17.067-17.067-17.067zM546.133 448h-68.267c-64.853 0-119.467 54.613-119.467 119.467v170.667c0 10.24 6.827 17.067 17.067 17.067s17.067-6.827 17.067-17.067v-170.667c0-47.787 37.547-85.333 85.333-85.333h68.267c47.787 0 85.333 37.547 85.333 85.333v170.667c0 10.24 6.827 17.067 17.067 17.067s17.067-6.827 17.067-17.067v-170.667c0-64.853-54.613-119.467-119.467-119.467z" />
<glyph unicode="&#xe910;" glyph-name="Maximize-3" d="M58.231 925.867h266.035c9.421 0 17.067 7.646 17.067 17.067s-7.646 17.067-17.067 17.067h-307.2c-0.99 0-1.877-0.41-2.833-0.58-1.229-0.205-2.492-0.239-3.652-0.717-2.116-0.887-3.994-2.116-5.598-3.721 0 0 0 0 0 0-0.137-0.137-0.171-0.341-0.341-0.478-1.365-1.468-2.56-3.14-3.345-5.018-0.853-2.15-1.297-4.369-1.297-6.622v-307.132c0-9.421 7.646-17.067 17.067-17.067s17.067 7.646 17.067 17.067v265.967l312.183-312.183c3.345-3.311 7.714-4.983 12.083-4.983s8.738 1.673 12.049 4.983c6.656 6.656 6.656 17.476 0 24.132l-312.218 312.218zM346.317 306.449l-312.183-312.183v266.001c0 9.421-7.646 17.067-17.067 17.067s-17.067-7.646-17.067-17.067v-307.166c0-2.253 0.444-4.506 1.331-6.588 0.478-1.126 1.297-1.98 1.98-2.97 0.58-0.853 0.922-1.775 1.673-2.526 0.58-0.546 1.297-0.785 1.911-1.263 1.161-0.887 2.287-1.843 3.652-2.389 2.082-0.922 4.301-1.365 6.519-1.365h307.2c9.421 0 17.067 7.646 17.067 17.067s-7.646 17.067-17.067 17.067h-266.001l312.183 312.183c6.656 6.656 6.656 17.476 0 24.132s-17.476 6.656-24.132 0zM1006.933 277.333c-9.421 0-17.067-7.646-17.067-17.067v-266.035l-312.218 312.218c-6.656 6.656-17.476 6.656-24.132 0s-6.656-17.476 0-24.132l312.183-312.183h-265.967c-9.421 0-17.067-7.646-17.067-17.067s7.646-17.067 17.067-17.067h307.2c2.219 0 4.437 0.444 6.519 1.331 1.911 0.785 3.55 1.98 5.052 3.345 0.137 0.137 0.341 0.171 0.478 0.307 0 0 0 0 0 0 1.57 1.57 2.833 3.482 3.686 5.564 0.478 1.195 0.546 2.423 0.751 3.686 0.171 0.956 0.58 1.843 0.58 2.833v307.2c0 9.421-7.646 17.067-17.067 17.067zM1023.249 946.586c-0.205 0.922-0.205 1.911-0.58 2.799-1.741 4.233-5.086 7.578-9.318 9.318-0.887 0.375-1.843 0.341-2.799 0.58-1.161 0.239-2.321 0.717-3.618 0.717h-307.2c-9.421 0-17.067-7.646-17.067-17.067s7.646-17.067 17.067-17.067h266.001l-312.218-312.218c-6.656-6.656-6.656-17.476 0-24.132 3.345-3.311 7.714-4.983 12.083-4.983s8.738 1.673 12.049 4.983l312.218 312.218v-266.001c0-9.421 7.646-17.067 17.067-17.067s17.067 7.646 17.067 17.067v307.2c0 1.297-0.478 2.458-0.751 3.652z" />
<glyph unicode="&#xe911;" glyph-name="Minimize-2" d="M651.844 592.077c0.58-0.853 0.922-1.775 1.673-2.526 0.58-0.546 1.297-0.785 1.911-1.263 1.161-0.887 2.287-1.843 3.652-2.389 2.082-0.887 4.301-1.365 6.519-1.365h307.2c9.421 0 17.067 7.646 17.067 17.067s-7.646 17.067-17.067 17.067h-266.001l312.183 312.183c6.656 6.656 6.656 17.476 0 24.132s-17.476 6.656-24.132 0l-312.183-312.183v266.001c0 9.421-7.646 17.067-17.067 17.067s-17.067-7.646-17.067-17.067v-307.166c0-2.253 0.444-4.506 1.331-6.588 0.478-1.126 1.297-2.014 1.98-2.97zM374.17 300.851c-1.741 4.233-5.086 7.578-9.318 9.318-0.887 0.375-1.843 0.341-2.799 0.58-1.195 0.273-2.321 0.717-3.652 0.717h-307.2c-9.421 0-17.067-7.646-17.067-17.067s7.646-17.067 17.067-17.067h266.001l-312.218-312.218c-6.656-6.656-6.656-17.476 0-24.132 3.379-3.311 7.714-4.983 12.083-4.983s8.738 1.673 12.049 4.983l312.218 312.218v-266.001c0-9.421 7.646-17.067 17.067-17.067s17.067 7.646 17.067 17.067v307.2c0 1.297-0.478 2.458-0.751 3.652-0.171 0.956-0.171 1.911-0.546 2.799zM706.799 277.333h266.001c9.421 0 17.067 7.646 17.067 17.067s-7.646 17.067-17.067 17.067h-307.2c-0.99 0-1.877-0.41-2.833-0.58-1.229-0.205-2.492-0.273-3.686-0.751-2.082-0.853-3.994-2.116-5.564-3.686 0 0 0 0 0 0-0.137-0.137-0.171-0.341-0.341-0.478-1.365-1.468-2.56-3.14-3.345-5.018-0.819-2.116-1.297-4.369-1.297-6.588v-307.166c0-9.421 7.646-17.067 17.067-17.067s17.067 7.646 17.067 17.067v265.967l312.183-312.183c3.379-3.311 7.714-4.983 12.083-4.983s8.738 1.673 12.049 4.983c6.656 6.656 6.656 17.476 0 24.132l-312.183 312.218zM358.4 925.867c-9.421 0-17.067-7.646-17.067-17.067v-266.035l-312.183 312.218c-6.656 6.656-17.476 6.656-24.132 0s-6.656-17.476 0-24.132l312.149-312.183h-265.967c-9.421 0-17.067-7.646-17.067-17.067s7.646-17.067 17.067-17.067h307.2c2.219 0 4.437 0.444 6.519 1.331 1.877 0.785 3.55 1.946 5.018 3.345 0.137 0.137 0.341 0.171 0.512 0.341 0 0 0 0 0 0 1.57 1.57 2.833 3.482 3.686 5.564 0.478 1.195 0.546 2.423 0.751 3.686 0.205 0.956 0.58 1.809 0.58 2.799v307.2c0 9.421-7.646 17.067-17.067 17.067z" />
<glyph unicode="&#xe914;" glyph-name="Photo-Library" d="M802.133 157.867h-682.667c-10.24 0-17.067 6.827-17.067 17.067v102.4c0 10.24 6.827 17.067 17.067 17.067s17.067-6.827 17.067-17.067v-85.333h648.533v580.267h-85.333c-10.24 0-17.067 6.827-17.067 17.067s6.827 17.067 17.067 17.067h102.4c10.24 0 17.067-6.827 17.067-17.067v-614.4c0-10.24-6.827-17.067-17.067-17.067zM904.533 55.467h-682.667c-10.24 0-17.067 6.827-17.067 17.067v102.4c0 10.24 6.827 17.067 17.067 17.067s17.067-6.827 17.067-17.067v-85.333h648.533v580.267h-85.333c-10.24 0-17.067 6.827-17.067 17.067s6.827 17.067 17.067 17.067h102.4c10.24 0 17.067-6.827 17.067-17.067v-614.4c0-10.24-6.827-17.067-17.067-17.067zM1006.933-46.933h-682.667c-10.24 0-17.067 6.827-17.067 17.067v102.4c0 10.24 6.827 17.067 17.067 17.067s17.067-6.827 17.067-17.067v-85.333h648.533v512h-85.333c-10.24 0-17.067 6.827-17.067 17.067s6.827 17.067 17.067 17.067h102.4c10.24 0 17.067-6.827 17.067-17.067v-546.133c0-10.24-6.827-17.067-17.067-17.067zM696.32 260.267c-6.827 0-13.653 3.413-17.067 10.24l-187.733 447.147-136.533-242.347c-3.413-3.413-6.827-6.827-10.24-6.827s-10.24 0-13.653 3.413l-105.813 88.747-194.56-290.133c-6.827-6.827-17.067-10.24-23.893-3.413-6.827 0-10.24 10.24-3.413 20.48l204.8 307.2c3.413 3.413 6.827 6.827 10.24 6.827s10.24 0 13.653-3.413l102.4-88.747 143.36 256c3.413 6.827 10.24 10.24 17.067 10.24s13.653-3.413 13.653-10.24l201.387-477.867c3.413-10.24 0-17.067-10.24-23.893 0-3.413 0-3.413-3.413-3.413zM699.733 260.267h-682.667c-10.24 0-17.067 6.827-17.067 17.067v648.533c0 10.24 6.827 17.067 17.067 17.067h682.667c10.24 0 17.067-6.827 17.067-17.067v-648.533c0-10.24-6.827-17.067-17.067-17.067zM34.133 294.4h648.533v614.4h-648.533v-614.4zM221.867 669.867c-47.787 0-85.333 37.547-85.333 85.333s37.547 85.333 85.333 85.333 85.333-37.547 85.333-85.333-37.547-85.333-85.333-85.333zM221.867 806.4c-27.307 0-51.2-23.893-51.2-51.2s23.893-51.2 51.2-51.2 51.2 23.893 51.2 51.2-23.893 51.2-51.2 51.2z" />
<glyph unicode="&#xe915;" glyph-name="Right-2" d="M273.067-46.933c-3.413 0-10.24 0-13.653 3.413-6.827 6.827-6.827 17.067 0 23.893l467.627 467.627-467.627 464.213c-6.827 6.827-6.827 17.067 0 23.893s17.067 6.827 23.893 0l477.867-477.867c6.827-6.827 6.827-17.067 0-23.893l-477.867-477.867c0-3.413-6.827-3.413-10.24-3.413z" />
<glyph unicode="&#xe916;" glyph-name="Right-3" d="M460.8-46.933c-3.413 0-10.24 0-13.653 3.413-6.827 6.827-6.827 17.067 0 23.893l467.627 467.627-467.627 464.213c-6.827 6.827-6.827 17.067 0 23.893s17.067 6.827 23.893 0l477.867-477.867c6.827-6.827 6.827-17.067 0-23.893l-477.867-477.867c0-3.413-6.827-3.413-10.24-3.413zM85.333-46.933c-3.413 0-10.24 0-13.653 3.413-6.827 6.827-6.827 17.067 0 23.893l467.627 467.627-467.627 464.213c-3.413 6.827-3.413 20.48 0 27.307s17.067 6.827 23.893 0l477.867-477.867c6.827-6.827 6.827-17.067 0-23.893l-477.867-477.867c0-6.827-6.827-6.827-10.24-6.827z" />
<glyph unicode="&#xe917;" glyph-name="Right-6" d="M102.4-46.933c-3.413 0-6.827 0-6.827 3.413-6.827 3.413-10.24 10.24-10.24 13.653v955.733c0 6.827 3.413 10.24 10.24 13.653s10.24 3.413 17.067 0l819.2-477.867c6.827-3.413 6.827-10.24 6.827-13.653s-3.413-10.24-6.827-13.653l-819.2-477.867c-3.413-3.413-6.827-3.413-10.24-3.413zM119.467 895.147v-897.707l768 450.56-768 447.147z" />
<glyph unicode="&#xe918;" glyph-name="Rotate-2" d="M1006.933 465.067c-9.421 0-17.067-7.646-17.067-17.067 0-263.509-214.357-477.867-477.867-477.867-184.422 0-343.108 108.988-449.536 307.2h125.269c9.421 0 17.067 7.646 17.067 17.067s-7.646 17.067-17.067 17.067h-170.667c-9.421 0-17.067-7.646-17.067-17.067v-170.667c0-9.421 7.646-17.067 17.067-17.067s17.067 7.646 17.067 17.067v134.144c112.64-207.735 281.259-321.877 477.867-321.877 282.317 0 512 229.683 512 512 0 9.421-7.646 17.067-17.067 17.067zM1006.933 789.333c-9.421 0-17.067-7.646-17.067-17.067v-134.144c-112.64 207.735-281.259 321.877-477.867 321.877-282.317 0-512-229.683-512-512 0-9.421 7.646-17.067 17.067-17.067s17.067 7.646 17.067 17.067c0 263.509 214.357 477.867 477.867 477.867 184.422 0 343.108-108.988 449.536-307.2h-125.269c-9.421 0-17.067-7.646-17.067-17.067s7.646-17.067 17.067-17.067h170.667c9.421 0 17.067 7.646 17.067 17.067v170.667c0 9.421-7.646 17.067-17.067 17.067zM716.8 448c0 112.947-91.853 204.8-204.8 204.8s-204.8-91.853-204.8-204.8 91.853-204.8 204.8-204.8 204.8 91.853 204.8 204.8zM341.333 448c0 94.106 76.561 170.667 170.667 170.667s170.667-76.561 170.667-170.667-76.561-170.667-170.667-170.667-170.667 76.561-170.667 170.667z" />
<glyph unicode="&#xe919;" glyph-name="Solid-Anchor" d="M979.627 448c-6.827 3.413-13.653 0-17.067-3.413-102.4-102.4-232.107-167.253-235.52-167.253-3.413-3.413-6.827-6.827-10.24-10.24 0-3.413 0-10.24 3.413-13.653l20.48-30.72c-68.267-64.853-143.36-85.333-153.6-75.093-3.413 3.413-6.827 20.48-6.827 27.307v409.6h95.573c20.48-20.48 47.787-34.133 75.093-34.133 58.027 0 102.4 44.373 102.4 102.4s-44.373 102.4-102.4 102.4c-30.72 0-58.027-13.653-75.093-34.133h-95.573c0 6.827 0 20.48-3.413 30.72 23.893 23.893 37.547 54.613 37.547 88.747 0 64.853-54.613 119.467-119.467 119.467s-119.467-54.613-119.467-119.467c0-34.133 13.653-64.853 37.547-88.747 0-13.653-3.413-23.893-3.413-30.72h-61.44c-6.827 6.827-13.653 13.653-20.48 17.067-13.653 10.24-34.133 17.067-54.613 17.067-58.027 0-102.4-44.373-102.4-102.4s44.373-102.4 102.4-102.4c30.72 0 58.027 13.653 75.093 34.133h61.44v-409.6c0-6.827-3.413-23.893-10.24-30.72 0 0-3.413-3.413-6.827-3.413-27.307 0-64.853 37.547-116.053 88.747l10.24 23.893c3.413 6.827 0 17.067-6.827 23.893 0 0-112.64 64.853-218.453 167.253-3.413 3.413-10.24 6.827-17.067 3.413s-10.24-10.24-10.24-17.067c0-225.28 98.987-286.72 102.4-286.72 3.413-3.413 6.827-3.413 6.827-3.413h30.72c47.787-109.227 163.84-143.36 242.347-167.253 23.893-6.827 54.613-17.067 61.44-23.893 0-10.24 6.827-17.067 17.067-17.067 6.827 0 13.653 3.413 17.067 13.653 0 0 0 3.413 0 3.413 6.827 6.827 40.96 17.067 68.267 23.893 85.333 23.893 211.627 58.027 259.413 167.253h30.72c3.413 0 6.827 0 6.827 3.413 3.413 3.413 112.64 64.853 112.64 286.72 0 6.827-3.413 13.653-10.24 17.067zM494.933 789.333c-27.307 0-51.2 23.893-51.2 51.2s23.893 51.2 51.2 51.2 51.2-23.893 51.2-51.2-23.893-51.2-51.2-51.2z" />
<glyph unicode="&#xe91a;" glyph-name="Solid-Clock-1" d="M512 942.933c-273.067 0-494.933-221.867-494.933-494.933s221.867-494.933 494.933-494.933 494.933 221.867 494.933 494.933-221.867 494.933-494.933 494.933zM750.933 430.933h-238.933c-10.24 0-17.067 6.827-17.067 17.067v341.333c0 10.24 6.827 17.067 17.067 17.067s17.067-6.827 17.067-17.067v-324.267h221.867c10.24 0 17.067-6.827 17.067-17.067s-6.827-17.067-17.067-17.067z" />
<glyph unicode="&#xe91b;" glyph-name="Solid-Down-2" d="M512 192c-3.413 0-10.24 0-13.653 3.413l-477.867 477.867c-6.827 6.827-6.827 17.067 0 23.893s17.067 6.827 23.893 0l467.627-464.213 464.213 467.627c6.827 6.827 17.067 6.827 23.893 0s6.827-17.067 0-23.893l-477.867-477.867c0-6.827-6.827-6.827-10.24-6.827z" />
<glyph unicode="&#xe91c;" glyph-name="Solid-Down-3" d="M512 4.267c-3.413 0-10.24 0-13.653 3.413l-477.867 477.867c-6.827 6.827-6.827 17.067 0 23.893s17.067 6.827 23.893 0l467.627-464.213 464.213 464.213c6.827 6.827 17.067 6.827 23.893 0s6.827-17.067 0-23.893l-477.867-477.867c0-3.413-6.827-3.413-10.24-3.413zM512 379.733c-3.413 0-10.24 0-13.653 3.413l-477.867 477.867c-6.827 6.827-6.827 17.067 0 23.893s17.067 6.827 23.893 0l467.627-464.213 464.213 467.627c6.827 6.827 17.067 6.827 23.893 0s6.827-17.067 0-23.893l-477.867-477.867c0-6.827-6.827-6.827-10.24-6.827z" />
<glyph unicode="&#xe921;" glyph-name="Solid-Headset-1" d="M989.867 287.573v136.533c0 273.067-221.867 512-477.867 512s-477.867-238.933-477.867-512v-136.533c0-6.827 3.413-13.653 6.827-17.067-23.893-34.133-40.96-78.507-40.96-119.467 0-122.88 112.64-187.733 221.867-187.733 27.307 0 51.2 23.893 51.2 51.2v307.2c0 27.307-23.893 51.2-51.2 51.2-40.96 0-85.333-17.067-119.467-40.96v92.16c0 126.293 54.613 242.347 136.533 324.267v-51.2c0-10.24 3.413-13.653 10.24-17.067s13.653 0 17.067 3.413c64.853 64.853 143.36 95.573 245.76 95.573s180.907-30.72 242.347-95.573c3.413-3.413 6.827-6.827 13.653-6.827 3.413 0 3.413 0 6.827 0 6.827 6.827 10.24 10.24 10.24 17.067v51.2c81.92-81.92 136.533-197.973 136.533-324.267v-78.507c-37.547 17.067-78.507 27.307-119.467 27.307-27.307 0-51.2-23.893-51.2-51.2v-307.2c0-27.307 23.893-51.2 51.2-51.2 112.64 0 221.867 109.227 221.867 221.867 0 40.96-13.653 78.507-34.133 105.813zM204.8 318.293c0 10.24 6.827 17.067 17.067 17.067s17.067-6.827 17.067-17.067v-307.2c0-10.24-6.827-17.067-17.067-17.067s-17.067 10.24-17.067 17.067v307.2zM819.2 11.093c0-10.24-6.827-17.067-17.067-17.067s-17.067 10.24-17.067 17.067v307.2c0 10.24 6.827 17.067 17.067 17.067s17.067-6.827 17.067-17.067v-307.2z" />
<glyph unicode="&#xe923;" glyph-name="Solid-Left-2" d="M750.933-46.933c-3.413 0-10.24 0-13.653 3.413l-477.867 477.867c-6.827 6.827-6.827 17.067 0 23.893l477.867 477.867c6.827 6.827 17.067 6.827 23.893 0s6.827-17.067 0-23.893l-464.213-464.213 464.213-464.213c6.827-6.827 6.827-17.067 0-23.893 0-6.827-6.827-6.827-10.24-6.827z" />
<glyph unicode="&#xe924;" glyph-name="Solid-Left-3" d="M563.2-46.933c-3.413 0-10.24 0-13.653 3.413l-477.867 477.867c-6.827 6.827-6.827 17.067 0 23.893l477.867 477.867c6.827 6.827 17.067 6.827 23.893 0s6.827-17.067 0-23.893l-464.213-464.213 464.213-464.213c6.827-6.827 6.827-17.067 0-23.893 0-6.827-6.827-6.827-10.24-6.827zM938.667-46.933c-3.413 0-10.24 0-13.653 3.413l-477.867 477.867c-6.827 6.827-6.827 17.067 0 23.893l477.867 477.867c6.827 6.827 17.067 6.827 23.893 0s6.827-17.067 0-23.893l-464.213-464.213 464.213-464.213c6.827-6.827 6.827-17.067 0-23.893 0-6.827-6.827-6.827-10.24-6.827z" />
<glyph unicode="&#xe927;" glyph-name="Solid-Map-Pin-2" d="M512 960c-153.6 0-290.133-126.293-290.133-273.067 0-143.36 262.827-716.8 273.067-740.693 3.413-6.827 10.24-10.24 17.067-10.24s13.653 3.413 17.067 10.24c10.24 23.893 273.067 597.333 273.067 740.693 0 146.773-136.533 273.067-290.133 273.067zM512 823.467c64.853 0 119.467-54.613 119.467-119.467s-54.613-119.467-119.467-119.467-119.467 54.613-119.467 119.467 54.613 119.467 119.467 119.467z" />
<glyph unicode="&#xe928;" glyph-name="Solid-Map-pin-6" d="M358.4 741.547c0 0 0-3.413 0-3.413v-170.667c0-64.853 54.613-119.467 119.467-119.467h68.267c64.853 0 119.467 54.613 119.467 119.467v170.667c0 0 0 3.413 0 3.413 44.373 37.547 68.267 85.333 68.267 133.12 0 3.413 0 3.413 0 6.827-3.413 6.827-34.133 78.507-221.867 78.507s-218.453-71.68-221.867-78.507c0-3.413 0-3.413 0-6.827 0-47.787 27.307-95.573 68.267-133.12zM368.64 857.6c6.827 3.413 17.067 0 20.48-6.827 3.413-3.413 23.893-27.307 122.88-27.307 102.4 0 122.88 23.893 122.88 23.893 3.413 10.24 13.653 13.653 20.48 10.24 10.24-3.413 13.653-13.653 6.827-23.893-3.413-10.24-27.307-44.373-150.187-44.373s-146.773 34.133-153.6 44.373c-3.413 6.827 0 17.067 10.24 23.893zM768 379.733c0 58.027-17.067 98.987-54.613 133.12-3.413 3.413-10.24 3.413-13.653 3.413-6.827 0-10.24-3.413-10.24-10.24-27.307-54.613-81.92-92.16-143.36-92.16h-68.267c-61.44 0-116.053 37.547-139.947 92.16-3.413 6.827-6.827 10.24-13.653 10.24s-10.24 0-13.653-3.413c-37.547-34.133-54.613-75.093-54.613-133.12 0-3.413 0-23.893 20.48-44.373 37.547-37.547 109.227-58.027 218.453-58.027v-324.267c0-10.24 6.827-17.067 17.067-17.067s17.067 6.827 17.067 17.067v324.267c109.227 3.413 180.907 20.48 218.453 58.027 20.48 20.48 20.48 40.96 20.48 44.373z" />
<glyph unicode="&#xe92b;" glyph-name="Solid-Photo-Library" d="M921.6 72.533v614.4c0 10.24-6.827 17.067-17.067 17.067h-34.133c-10.24 0-17.067-6.827-17.067-17.067v-512c0-27.307-23.893-51.2-51.2-51.2h-580.267c-10.24 0-17.067-6.827-17.067-17.067v-34.133c0-10.24 6.827-17.067 17.067-17.067h682.667c10.24 0 17.067 6.827 17.067 17.067zM819.2 174.933v614.4c0 10.24-6.827 17.067-17.067 17.067h-34.133c-10.24 0-17.067-6.827-17.067-17.067v-512c0-27.307-23.893-51.2-51.2-51.2h-580.267c-10.24 0-17.067-6.827-17.067-17.067v-34.133c0-10.24 6.827-17.067 17.067-17.067h682.667c10.24 0 17.067 6.827 17.067 17.067zM696.32 260.267c0 0 0 0 0 0v0c13.653 0 20.48 6.827 20.48 17.067v648.533c0 10.24-6.827 17.067-17.067 17.067h-682.667c-10.24 0-17.067-6.827-17.067-17.067v-648.533c0-3.413 0-6.827 3.413-6.827 0 0 0 0 0 0s0 0 0 0c0-3.413 3.413-3.413 3.413-3.413s0 0 3.413 0 3.413-3.413 6.827-3.413c0-3.413 679.253-3.413 679.253-3.413zM682.667 908.8v-556.373l-170.667 409.6c-3.413 6.827-6.827 10.24-13.653 10.24s-13.653-3.413-17.067-10.24l-143.36-256-102.4 88.747c-3.413 3.413-10.24 3.413-13.653 3.413s-10.24-3.413-10.24-6.827l-177.493-256v573.44h648.533zM1006.933 533.333h-34.133c-10.24 0-17.067-6.827-17.067-17.067v-443.733c0-27.307-23.893-51.2-51.2-51.2h-580.267c-10.24 0-17.067-6.827-17.067-17.067v-34.133c0-10.24 6.827-17.067 17.067-17.067h682.667c10.24 0 17.067 6.827 17.067 17.067v546.133c0 10.24-6.827 17.067-17.067 17.067zM307.2 755.2c0-47.128-38.205-85.333-85.333-85.333s-85.333 38.205-85.333 85.333c0 47.128 38.205 85.333 85.333 85.333s85.333-38.205 85.333-85.333z" />
<glyph unicode="&#xe92c;" glyph-name="Solid-Right-2" d="M273.067-46.933c-3.413 0-10.24 0-13.653 3.413-6.827 6.827-6.827 17.067 0 23.893l467.627 467.627-467.627 464.213c-6.827 6.827-6.827 17.067 0 23.893s17.067 6.827 23.893 0l477.867-477.867c6.827-6.827 6.827-17.067 0-23.893l-477.867-477.867c0-3.413-6.827-3.413-10.24-3.413z" />
<glyph unicode="&#xe92d;" glyph-name="Solid-Right-3" d="M460.8-46.933c-3.413 0-10.24 0-13.653 3.413-6.827 6.827-6.827 17.067 0 23.893l467.627 467.627-467.627 464.213c-6.827 6.827-6.827 17.067 0 23.893s17.067 6.827 23.893 0l477.867-477.867c6.827-6.827 6.827-17.067 0-23.893l-477.867-477.867c0-3.413-6.827-3.413-10.24-3.413zM85.333-46.933c-3.413 0-10.24 0-13.653 3.413-6.827 6.827-6.827 17.067 0 23.893l467.627 467.627-467.627 464.213c-3.413 6.827-3.413 20.48 0 27.307s17.067 6.827 23.893 0l477.867-477.867c6.827-6.827 6.827-17.067 0-23.893l-477.867-477.867c0-6.827-6.827-6.827-10.24-6.827z" />
<glyph unicode="&#xe92e;" glyph-name="Solid-Right-6" d="M931.84 461.653l-819.2 477.867c-6.827 3.413-10.24 3.413-17.067 0s-10.24-6.827-10.24-13.653v-955.733c0-6.827 3.413-10.24 10.24-13.653 3.413 0 6.827-3.413 6.827-3.413 3.413 0 6.827 0 10.24 3.413l819.2 477.867c6.827 3.413 6.827 10.24 6.827 13.653s-3.413 10.24-6.827 13.653z" />
<glyph unicode="&#xe932;" glyph-name="Solid-Up-2" d="M989.867 192c-3.413 0-10.24 0-13.653 3.413l-464.213 467.627-464.213-467.627c-6.827-6.827-17.067-6.827-23.893 0s-6.827 17.067 0 23.893l477.867 477.867c6.827 6.827 17.067 6.827 23.893 0l477.867-477.867c6.827-6.827 6.827-17.067 0-23.893-3.413-3.413-10.24-3.413-13.653-3.413z" />
<glyph unicode="&#xe933;" glyph-name="Solid-Up-3" d="M989.867 379.733c-4.369 0-8.738 1.673-12.083 4.983l-465.783 465.818-465.783-465.818c-6.656-6.656-17.476-6.656-24.132 0s-6.656 17.476 0 24.132l477.867 477.867c6.656 6.656 17.476 6.656 24.132 0l477.867-477.867c6.656-6.656 6.656-17.476 0-24.132-3.345-3.311-7.714-4.983-12.083-4.983zM989.867 4.267c-4.369 0-8.738 1.673-12.083 4.983l-465.783 465.818-465.783-465.818c-6.656-6.656-17.476-6.656-24.132 0s-6.656 17.476 0 24.132l477.867 477.867c6.656 6.656 17.476 6.656 24.132 0l477.867-477.867c6.656-6.656 6.656-17.476 0-24.132-3.345-3.311-7.714-4.983-12.083-4.983z" />
<glyph unicode="&#xe937;" glyph-name="Up-2" d="M989.867 192c-3.413 0-10.24 0-13.653 3.413l-464.213 467.627-464.213-467.627c-6.827-6.827-17.067-6.827-23.893 0s-6.827 17.067 0 23.893l477.867 477.867c6.827 6.827 17.067 6.827 23.893 0l477.867-477.867c6.827-6.827 6.827-17.067 0-23.893-3.413-3.413-10.24-3.413-13.653-3.413z" />
<glyph unicode="&#xe938;" glyph-name="Up-3" d="M989.867 379.733c-4.369 0-8.738 1.673-12.083 4.983l-465.783 465.818-465.783-465.818c-6.656-6.656-17.476-6.656-24.132 0s-6.656 17.476 0 24.132l477.867 477.867c6.656 6.656 17.476 6.656 24.132 0l477.867-477.867c6.656-6.656 6.656-17.476 0-24.132-3.345-3.311-7.714-4.983-12.083-4.983zM989.867 4.267c-4.369 0-8.738 1.673-12.083 4.983l-465.783 465.818-465.783-465.818c-6.656-6.656-17.476-6.656-24.132 0s-6.656 17.476 0 24.132l477.867 477.867c6.656 6.656 17.476 6.656 24.132 0l477.867-477.867c6.656-6.656 6.656-17.476 0-24.132-3.345-3.311-7.714-4.983-12.083-4.983z" />
</font>
</defs>
</svg>
